<?xml version="1.0" standalone="no"?>
<!DOCTYPE svg PUBLIC "-//W3C//DTD SVG 1.1//EN" "http://www.w3.org/Graphics/SVG/1.1/DTD/svg11.dtd" >
<svg xmlns="http://www.w3.org/2000/svg">
<defs>
<font id="TestS" horiz-adv-x="450" >
  <font-face 
    font-family="TestS"
    font-weight="400"
    font-stretch="normal"
    units-per-em="1000"
    panose-1="2 0 5 3 0 0 0 0 0 0"
    ascent="800"
    descent="-200"
    x-height="466.969"
    cap-height="668.27"
    bbox="-41.5 -185.945 850.188 798.375"
    underline-thickness="50"
    underline-position="-100"
    unicode-range="U+000D-U+02DC"
  />
    <glyph glyph-name="0" unicode="0" horiz-adv-x="0" d="" />
    <glyph glyph-name="1" unicode="1" horiz-adv-x="0" d="" />	  
    <glyph glyph-name="2" unicode="2" horiz-adv-x="0" d="" />
	<glyph glyph-name="3" unicode="3" horiz-adv-x="0" d="" />
    <glyph glyph-name="4" unicode="4" horiz-adv-x="0" d="" />
    <glyph glyph-name="5" unicode="5" horiz-adv-x="0" d="" />
    <glyph glyph-name="6" unicode="6" horiz-adv-x="0" d="" />
    <glyph glyph-name="7" unicode="7" horiz-adv-x="0" d="" />
    <glyph glyph-name="8" unicode="8" horiz-adv-x="0" d="" />
    <glyph glyph-name="9" unicode="9" horiz-adv-x="0" d="" />
    <glyph glyph-name="A" unicode="A" horiz-adv-x="0" d="" />
    <glyph glyph-name="B" unicode="B" horiz-adv-x="0" d="" />
    <glyph glyph-name="C" unicode="C" horiz-adv-x="0" d="" />
    <glyph glyph-name="D" unicode="D" horiz-adv-x="0" d="" />
    <glyph glyph-name="E" unicode="E" horiz-adv-x="0" d="" />
    <glyph glyph-name="F" unicode="F" horiz-adv-x="0" d="" />
    <glyph glyph-name="G" unicode="G" horiz-adv-x="0" d="" />
    <glyph glyph-name="H" unicode="H" horiz-adv-x="0" d="" />
    <glyph glyph-name="I" unicode="I" horiz-adv-x="0" d="" />
    <glyph glyph-name="J" unicode="J" horiz-adv-x="0" d="" />
    <glyph glyph-name="K" unicode="K" horiz-adv-x="0" d="" />
    <glyph glyph-name="L" unicode="L" horiz-adv-x="0" d="" />
    <glyph glyph-name="M" unicode="M" horiz-adv-x="0" d="" />
    <glyph glyph-name="N" unicode="N" horiz-adv-x="0" d="" />
    <glyph glyph-name="O" unicode="O" horiz-adv-x="0" d="" />
    <glyph glyph-name="P" unicode="P" horiz-adv-x="0" d="" />
    <glyph glyph-name="Q" unicode="Q" horiz-adv-x="0" d="" />
    <glyph glyph-name="R" unicode="R" horiz-adv-x="0" d="" />
    <glyph glyph-name="S" unicode="S" horiz-adv-x="457" 
d="M17.5 325.75q0 78.5977 53.998 115.049q52.4531 35.4082 140.533 36.4512q36.8027 0.435547 60.6934 -2.67969q31.0938 -4.05566 59.9805 -13.4697q28.8887 -9.41309 47.2793 -27.6396q19.8359 -19.6523 18.3906 -42.3047q-2.82617 -44.3057 -19.9609 -59.5283
q-17.1348 -15.2217 -55.0391 -15.2217q-22.6055 0 -45.8613 5.70117t-59.7637 5.70117q-14.7578 0.0136719 -24.707 0.0253906q-9.94922 0.0126953 -15.9863 -0.548828q-6.03711 -0.5625 -8.60938 -2.06641q-2.57227 -1.50293 -2.57227 -4.52148
q0 -5.65039 7.56836 -6.41309q7.56641 -0.762695 45.3633 -0.762695q103.803 0 155.436 -39.5469q51.6328 -39.5479 51.6328 -126.225q0 -80.3604 -54.4609 -113.196q-54.4609 -32.835 -165.383 -32.835q-32.9395 0 -62.8242 4.14844t-60.248 14.1104
q-30.3613 9.96191 -48.4883 30.6035t-18.127 49.7305q0 32.0645 22.1914 50.4258q23.998 19.8564 52.6523 19.8564q19.2266 0 50.001 -10.6816q30.7725 -10.6816 78.3408 -10.6816q18.4551 0.0234375 31.3379 -0.120117t19.7578 1.3291q6.875 1.47168 6.875 5.31055
q0 3.26074 -4.10742 5.0459t-11.8047 2.3252q-14.4043 1.0127 -18.7324 0.637695q-11.0664 -0.958008 -24.8828 -0.0166016q-35.6875 2.43262 -60.9316 6.46875q-25.2422 4.03613 -53.5469 14.6865q-28.3047 10.6514 -45.627 27.292t-28.8457 45.4883
q-11.5215 28.8477 -11.5215 68.0723z" />
    <glyph glyph-name="T" unicode="T" horiz-adv-x="0" d="" />
    <glyph glyph-name="U" unicode="U" horiz-adv-x="0" d="" />
    <glyph glyph-name="V" unicode="V" horiz-adv-x="0" d="" />
    <glyph glyph-name="W" unicode="W" horiz-adv-x="0" d="" />
    <glyph glyph-name="X" unicode="X" horiz-adv-x="0" d="" />
    <glyph glyph-name="Y" unicode="Y" horiz-adv-x="0" d="" />
    <glyph glyph-name="Z" unicode="Z" horiz-adv-x="0" d="" />
  </font>
</defs>
</svg>
